:Search:

Photographer 2024 Season 1 S01 1080p DSNP WEB DL x265 HEVC 10b

Torrent:
Similar Posts:
Name Uploaded Size Se Le Upl. by
Katerina Hartlova 24 07 08 Real POV Get Feeling Of My Photographer Wh… 2024-07-08 500.5 MB 22 33 NoisyBoY
Katerina Hartlova 24 07 08 Real POV Get Feeling Of My Photographer Wh… 2024-07-08 82.8 MB 33 14 NoisyBoY
Stargazing Photographs of the Night Sky from the Archives of NAS 2024-06-20 12.6 MB 28 42 zakareya
Amateur Photographer 11 June 2024 PDF 2024-06-11 56.1 MB 23 32 zakareya
Various Artists Photograph Sad Songs 2024 Mp3 320kbps PMED 2024-06-04 255.4 MB 48 18 PMEDIA
Ancient Egypt A Photographic History by Nigel Fletcher Jones EPU 2024-06-04 89.3 MB 2 10 zakareya
Porteous M The Ocean Speaks A photographic journey of discovery and h… 2024-06-01 26.8 MB 4 97 indexFroggy
Katerina Hartlova 19 10 07 Visit Castle With My Photographer And 2024-05-29 82.8 MB 23 41 mLisa
Photographer 2024 Season 1 S01 1080p DSNP WEB DL x265 HEVC 10b 2024-05-29 9.8 GB 11 13 QxR
Katerina Hartlova 19 10 18 Alice Hands She Is Assistant Photographer … 2024-05-29 699.6 MB 40 22 XXXClub
Uploader: QxR
Downloads: 8
Type: Documentary
Images:
Photographer 2024 Season 1 S01 1080p DSNP WEB DL x265 HEVC 10b
Photographer 2024 Season 1 S01 1080p DSNP WEB DL x265 HEVC 10b
Photographer 2024 Season 1 S01 1080p DSNP WEB DL x265 HEVC 10b
Photographer 2024 Season 1 S01 1080p DSNP WEB DL x265 HEVC 10b
Photographer 2024 Season 1 S01 1080p DSNP WEB DL x265 HEVC 10b
Photographer 2024 Season 1 S01 1080p DSNP WEB DL x265 HEVC 10b
Photographer 2024 Season 1 S01 1080p DSNP WEB DL x265 HEVC 10b
Photographer 2024 Season 1 S01 1080p DSNP WEB DL x265 HEVC 10b
Photographer 2024 Season 1 S01 1080p DSNP WEB DL x265 HEVC 10b
Photographer 2024 Season 1 S01 1080p DSNP WEB DL x265 HEVC 10b
Photographer 2024 Season 1 S01 1080p DSNP WEB DL x265 HEVC 10b
Info Hash: 6F9098416456674A16D83675B6E0DCAE1F4BE556
Language: English
Description: General
Format : Matroska
Format version : Version 4
File size : 1.76 GiB
Duration : 59 min 12 s
Overall bit rate : 4 260 kb/s
Frame rate : 23.976 FPS
Encoded date : 2024-05-29 07:39:46 UTC
Writing application : mkvmerge v84.0 ('Sleeper') 64-bit
Writing library : libebml v1.4.5 + libmatroska v1.7.1
Video
Format : HEVC
Format/Info : High Efficiency Video Coding
Format profile : Main 10@L4@Main
Codec ID : V_MPEGH/ISO/HEVC
Duration : 59 min 12 s
Bit rate : 4 000 kb/s
Width : 1 920 pixels
Height : 1 080 pixels
Display aspect ratio : 16:9
Frame rate mode : Constant
Frame rate : 23.976 (24000/1001) FPS
Color space : YUV
Chroma subsampling : 4:2:0
Bit depth : 10 bits
Bits/(Pixel*Frame) : 0.080
Stream size : 1.66 GiB (94%)
Writing library : x265 3.6+13-9a75b5947:[Windows][GCC 13.2.0][64 bit] 10bit
Encoding settings : cpuid=1111039 / frame-threads=3 / numa-pools=8 / wpp / no-pmode / no-pme / no-psnr / no-ssim / log-level=2 / input-csp=1 / input-res=1920x1080 / interlace=0 / total-frames=0 / level-idc=0 / high-tier=1 / uhd-bd=0 / ref=4 / no-allow-non-conformance / no-repeat-headers / annexb / no-aud / no-eob / no-eos / no-hrd / info / hash=0 / temporal-layers=0 / open-gop / min-keyint=23 / keyint=250 / gop-lookahead=0 / bframes=8 / b-adapt=2 / b-pyramid / bframe-bias=0 / rc-lookahead=25 / lookahead-slices=4 / scenecut=40 / no-hist-scenecut / radl=0 / no-splice / no-intra-refresh / ctu=64 / min-cu-size=8 / rect / no-amp / max-tu-size=32 / tu-inter-depth=1 / tu-intra-depth=1 / limit-tu=0 / rdoq-level=2 / dynamic-rd=0.00 / no-ssim-rd / signhide / no-tskip / nr-intra=0 / nr-inter=0 / no-constrained-intra / strong-intra-smoothing / max-merge=3 / limit-refs=3 / limit-modes / me=3 / subme=3 / merange=57 / temporal-mvp / no-frame-dup / no-hme / weightp / no-weightb / no-analyze-src-pics / deblock=0:0 / no-sao / no-sao-non-deblock / rd=4 / selective-sao=0 / no-early-skip / rskip / no-fast-intra / no-tskip-fast / no-cu-lossless / no-b-intra / no-splitrd-skip / rdpenalty=0 / psy-rd=2.00 / psy-rdoq=1.00 / no-rd-refine / no-lossless / cbqpoffs=0 / crqpoffs=0 / rc=abr / bitrate=4000 / qcomp=0.60 / qpstep=4 / stats-write=0 / stats-read=2 / cplxblur=20.0 / qblur=0.5 / ipratio=1.40 / pbratio=1.30 / aq-mode=3 / aq-strength=1.00 / cutree / zone-count=0 / no-strict-cbr / qg-size=32 / no-rc-grain / qpmax=69 / qpmin=0 / no-const-vbv / sar=1 / overscan=0 / videoformat=5 / range=0 / colorprim=2 / transfer=2 / colormatrix=2 / chromaloc=0 / display-window=0 / cll=0,0 / min-luma=0 / max-luma=1023 / log2-max-poc-lsb=8 / vui-timing-info / vui-hrd-info / slices=1 / no-opt-qp-pps / no-opt-ref-list-length-pps / multi-pass-opt-rps / scenecut-bias=0.05 / no-opt-cu-delta-qp / aq-motion / no-hdr10 / no-hdr10-opt / no-dhdr10-opt / no-idr-recovery-sei / analysis-reuse-level=0 / analysis-save-reuse-level=0 / analysis-load-reuse-level=0 / scale-factor=0 / refine-intra=0 / refine-inter=0 / refine-mv=1 / refine-ctu-distortion=0 / no-limit-sao / ctu-info=0 / no-lowpass-dct / refine-analysis-type=0 / copy-pic=1 / max-ausize-factor=1.0 / no-dynamic-refine / no-single-sei / no-hevc-aq / no-svt / no-field / qp-adaptation-range=1.00 / scenecut-aware-qp=0conformance-window-offsets / right=0 / bottom=0 / decoder-max-rate=0 / no-vbv-live-multi-pass / no-mcstf / no-sbrc
Default : Yes
Forced : Yes
Color range : Limited
Matrix coefficients : BT.2020 non-constant
Audio
Format : E-AC-3
Format/Info : Enhanced AC-3
Commercial name : Dolby Digital Plus
Codec ID : A_EAC3
Duration : 59 min 12 s
Bit rate mode : Constant
Bit rate : 256 kb/s
Channel(s) : 6 channels
Channel layout : L R C LFE Ls Rs
Sampling rate : 48.0 kHz
Frame rate : 31.250 FPS (1536 SPF)
Compression mode : Lossy
Stream size : 108 MiB (6%)
Language : English
Service kind : Complete Main
Default : Yes
Forced : No
Subtitles
Text
ID : 3
Format : UTF-8
Codec ID : S_TEXT/UTF8
Codec ID/Info : UTF-8 Plain Text
Duration : 59 min 9 s
Bit rate : 112 b/s
Frame rate : 0.365 FPS
Count of elements : 1297
Stream size : 48.7 KiB (0%)
Title : English
Language : English
Default : No
Forced : No
Category: Documentaries
Size: 9.8 GB
Added: May 29, 2024, 5 p.m.
Peers: Seeders: 11, Leechers: 13,
Files:
  1. Photographer (2024) - S01E01 - Paul Nicklen & Cristina Mittermeier - Win or Die (1080p DSNP WEB-DL x265 Garshasp).mkv 1.8 GB
  2. Photographer (2024) - S01E02 - Anand Varma - Hidden Wonders (1080p DSNP WEB-DL x265 Garshasp).mkv 1.6 GB
  3. Photographer (2024) - S01E03 - Dan Winters - Life is Once. Forever. (1080p DSNP WEB-DL x265 Garshasp).mkv 1.7 GB
  4. Photographer (2024) - S01E04 - Campbell Addy - Feeling Seen (1080p DSNP WEB-DL x265 Garshasp).mkv 1.6 GB
  5. Photographer (2024) - S01E05 - Krystle Wright - Heart Explosions (1080p DSNP WEB-DL x265 Garshasp).mkv 1.6 GB
Multiple Quality Available: M.Q.A
IMDB tt29538806
IMDB Title Photographer
IMDB Genre Documentary,
IMDB Runtime 0:55:00 Hours
IMDB Rating 8.1
Director
IMDB cast Dan Winters, Dylan Winters, Krystle Wright
IMDB plot Explores the famous photographers Campbell Addy, Cristina Mittermeier, Paul Nicklen, Muhammed Muheisen, Anand Varma, Dan Winters and Krystle Wright, who have made impacts in various types of photography.

Comment below