:Search:

Patna Shuklla 2024 Hindi 720p HS WEB DL DD 5 1 H 265 TheBiscuitMa

Torrent:
Similar Posts:
Name Uploaded Size Se Le Upl. by
Patna Shuklla 2024 Hindi 1080p 3200 MB WEBRip DD 5 1 AAC 2 2024-04-03 3.1 GB 41 49 AlejandroAXL
Patna Shuklla 2024 Hindi 720p 1400 MB WEBRip DD 5 1 AAC 2 2024-04-03 1.4 GB 21 45 AlejandroAXL
Patna Shuklla 2024 Hindi 2160p HS WEB DL DD 5 1 DV HDR H 265 TheB 2024-04-01 12.3 GB 13 18 xCLuMsYx
Patna Shuklla 2024 Hindi 2160p HS WEB DL DD 5 1 H 265 TheBiscuitM 2024-04-01 11.2 GB 16 37 xCLuMsYx
Patna Shuklla 2024 Hindi 1080p HS WEB DL DD 5 1 H 265 TheBiscuitM 2024-04-01 3.7 GB 44 39 xCLuMsYx
Patna Shuklla 2024 Hindi 1080p HS WEB DL DD 5 1 H 264 TheBiscuitM 2024-04-01 3.0 GB 29 48 xCLuMsYx
Patna Shuklla 2024 Hindi 720p HS WEB DL DD 5 1 H 265 TheBiscuitMa 2024-04-01 832.9 MB 49 15 xCLuMsYx
Patna Shuklla 2024 Hindi 720p HS WEB DL DD 5 1 H 264 TheBiscuitMa 2024-04-01 1.3 GB 33 22 xCLuMsYx
Patna Shuklla 2024 1080p HS WEB DL Hindi DDP5 1 H 265 GOPIHD 2024-03-29 2.1 GB 44 28 MrX123
Patna Shuklla 2024 Hindi 720p WEBRip x264 AAC ESub 2024-03-29 1.0 GB 36 27 krishh1337
Uploader: xCLuMsYx
Downloads: 1
Type: HEVC/x265
Images:
Patna Shuklla 2024 Hindi 720p HS WEB DL DD 5 1 H 265 TheBiscuitMa
Patna Shuklla 2024 Hindi 720p HS WEB DL DD 5 1 H 265 TheBiscuitMa
Patna Shuklla 2024 Hindi 720p HS WEB DL DD 5 1 H 265 TheBiscuitMa
Patna Shuklla 2024 Hindi 720p HS WEB DL DD 5 1 H 265 TheBiscuitMa
Patna Shuklla 2024 Hindi 720p HS WEB DL DD 5 1 H 265 TheBiscuitMa
Patna Shuklla 2024 Hindi 720p HS WEB DL DD 5 1 H 265 TheBiscuitMa
Patna Shuklla 2024 Hindi 720p HS WEB DL DD 5 1 H 265 TheBiscuitMa
Patna Shuklla 2024 Hindi 720p HS WEB DL DD 5 1 H 265 TheBiscuitMa
Patna Shuklla 2024 Hindi 720p HS WEB DL DD 5 1 H 265 TheBiscuitMa
Patna Shuklla 2024 Hindi 720p HS WEB DL DD 5 1 H 265 TheBiscuitMa
Patna Shuklla 2024 Hindi 720p HS WEB DL DD 5 1 H 265 TheBiscuitMa
Patna Shuklla 2024 Hindi 720p HS WEB DL DD 5 1 H 265 TheBiscuitMa
Patna Shuklla 2024 Hindi 720p HS WEB DL DD 5 1 H 265 TheBiscuitMa
Patna Shuklla 2024 Hindi 720p HS WEB DL DD 5 1 H 265 TheBiscuitMa
Info Hash: FE2E1AF5B36318D0A2CF95BFA9292C4BA13A1E22
Language: Hindi
Description: General
Unique ID : 114803928404269907230676932101472838417 (0x565E6EAE2489EA34C63750135710E311)
Complete name : Patna.Shuklla.2024.Hindi.720p.HS.WEB-DL.DD+5.1.H.265-TheBiscuitMan.mkv
Format : Matroska
Format version : Version 4
File size : 833 MiB
Duration : 2 h 5 min
Overall bit rate : 930 kb/s
Frame rate : 24.000 FPS
Writing application : mkvmerge v83.0 ('Circle Of Friends') 64-bit
Writing library : libebml v1.4.5 + libmatroska v1.7.1
Video
ID : 1
Format : HEVC
Format/Info : High Efficiency Video Coding
Format profile : [email protected]@Main
Codec ID : V_MPEGH/ISO/HEVC
Duration : 2 h 5 min
Bit rate : 736 kb/s
Width : 1 280 pixels
Height : 720 pixels
Display aspect ratio : 16:9
Frame rate mode : Constant
Frame rate : 24.000 FPS
Color space : YUV
Chroma subsampling : 4:2:0
Bit depth : 8 bits
Bits/(Pixel*Frame) : 0.033
Stream size : 659 MiB (79%)
Default : Yes
Forced : No
Audio
ID : 2
Format : E-AC-3
Format/Info : Enhanced AC-3
Commercial name : Dolby Digital Plus
Codec ID : A_EAC3
Duration : 2 h 5 min
Bit rate mode : Constant
Bit rate : 192 kb/s
Channel(s) : 6 channels
Channel layout : L R C LFE Ls Rs
Sampling rate : 48.0 kHz
Frame rate : 31.250 FPS (1536 SPF)
Compression mode : Lossy
Stream size : 172 MiB (21%)
Language : Hindi
Service kind : Complete Main
Default : Yes
Forced : No
Text #1
ID : 3
Format : UTF-8
Codec ID : S_TEXT/UTF8
Codec ID/Info : UTF-8 Plain Text
Duration : 2 h 2 min
Bit rate : 67 b/s
Frame rate : 0.257 FPS
Count of elements : 1885
Stream size : 60.5 KiB (0%)
Language : English
Default : No
Forced : No
Text #2
ID : 4
Format : UTF-8
Codec ID : S_TEXT/UTF8
Codec ID/Info : UTF-8 Plain Text
Duration : 2 h 2 min
Bit rate : 71 b/s
Frame rate : 0.280 FPS
Count of elements : 2054
Stream size : 64.0 KiB (0%)
Title : [SDH]
Language : English
Default : Yes
Forced : No
Category: Movies
Size: 832.9 MB
Added: April 1, 2024, 7:03 p.m.
Peers: Seeders: 49, Leechers: 15,
Multiple Quality Available: M.Q.A
IMDB tt23709962
IMDB Title Patna Shukla
IMDB Genre Drama,
IMDB Runtime 2:05:00 Hours
IMDB Rating 5.7
Director Vivek Budakoti, Rajendra Tiwari
IMDB cast Sristi Keshri, Raveena Tandon, Manav Vij
IMDB plot Tanvi Shukla, a lawyer in Patna's lower court, who is living her childhood dream of becoming a lawyer.

Comment below